Меню

Как настроить 380 pro

Как настроить 380 pro


  • WIFI IP камера с возможностью ночной съемки
  • Поддержка Plug &Play (P2P), нет необходимости в DDNS, нет необходимости в проброске портов.
  • Простое управление и настройка, через приложение на телефон. Поддержка операционных систем iOS, Android.
  • Поддержка ONVIF протокола
  • Поддержка MicroSD (Файловая система MicroSD карты, должна быть в формате FAT32),
  • Поддержка удаленного воспроизведения. (Примечание: 32GB SD карты хватает приблизительно на 3 недели).
  • Сигнализация тревоги: Возможность подачи сообщения о движении на телефон с помощью установленного приложения,скриншоты на почту не отправляет, но скриншоты по тревоге камера сбрасывает в своеже облако, можно смотреть из приложения)
  • Есть микрофон и динамик. С помощью приложения установленного на телефон, можно озвучить сообщение, которое передается через встроенный динамик в камере.

https://onedrive.live.…7B%21112&action=locate
Используется сервис nvdvr.net по 5050 порту (облако). MVCMS коннектится либо напрямую, либо через облако по адресу 00000000.nvdvr.net:5050 (где нули это ID камеры) Имя и пароль требует, также нужен проброс портов для доступа из вне
Видео пишет нормально, проигрывает без костылей в любом плеере. На смартфоне можно просматривать через приложение, на ПК можно смотреть и скачивать. Само приложение в маркете называется v380.

Можете поиграться с камерой продавца 31101562 admin 3154

General
Complete name : C:\Users\admin\Desktop\RecFiles\Rec1_20160718115221_A_1.avi
Format : AVI
Format/Info : Audio Video Interleave
File size : 10.1 MiB
Duration : 1mn 57s
Overall bit rate : 725 Kbps

Video
ID : 0
Format : x264
Codec ID : x264
Duration : 1mn 57s
Bit rate : 685 Kbps
Width : 1 280 pixels
Height : 720 pixels
Display aspect ratio : 16:9
Frame rate : 25.000 fps
Bits/(Pixel*Frame) : 0.030
Stream size : 9.56 MiB (94%)

Audio
ID : 1
Format : ADPCM
Codec ID : 11
Codec ID/Hint : Intel
Duration : 1mn 56s
Bit rate mode : Constant
Bit rate : 32.4 Kbps
Channel(s) : 1 channel
Sampling rate : 8 000 Hz
Bit depth : 4 bits
Stream size : 462 KiB (4%)
Interleave, duration : 63 ms (1.59 video frames)

По вопросам наполнения шапки обращайтесь к модераторам раздела, отправив «Жалобу» на сообщениях, ссылки на которые необходимо добавить.

Сообщение отредактировал Олег Верещагин — 18.03.21, 13:56

Источник

IP-камера Xiaovv XVV-1120S-B1, версия V380, отличие от версии для Mihome

Сегодня мы поговорим о наружной IP камере от бренда Xiaovv. Этот производитель, также выпускает камеры поддерживаемые в приложении MiHome и эта модель камеры не исключение. Но сложность заключается в том, существуют две модели наружных камер Xiaovv, внешне очень похожих, но одна из них работает только в родном приложении V380. В этом обзоре мы с вами попробуем разобраться, как не ошибиться при покупке.

Содержание

Где купить?

  • Gearbest — цена на момент публикации $51,27
  • Banggood — цена на момент публикации $ 45,68
  • Aliexpress — цена на момент публикации $ 35,75
  • Mihome версия — цена на момент публикации $ 34,63

Параметры

  • Камера имеет возможность как внутренней так и внешней установки и имеет защиту по классу IP65
  • Работает в диапазоне температур от -10℃-50℃
  • Камера оснащена широкоугольным 2,5 mm объективом с углом обзора 180 градусов, и диафрагмой F2.3, ночной режим съемки обеспечивают 4 инфракрасных диода
  • Съемка с разрешением 1080р и частотой 25 кадров/сек
  • Сетевые интерфейсы — wi-fi 2,4 GHz 802.11 b/g/n
  • Версия V380 имеет еще порт Ethernet
  • Поддержка карт памяти до 128 Gb
  • Двусторонняя голосовая связь

Поставка

Поставляется в белой картонной коробке, которая несколько пострадала при пересылке. На крышке — фото камеры и указание ее версии справа вверху — v380. Эта версия в MiHome не поддерживается. Ссылки на приложение v380 имеются сбоку коробки, также версия v380 указана на наклейке с номером модели.

Внутри коробки находится камера, упакованная в воздушный противоударный пакет, и еще одна картонная коробке с аксессуарами. Вот все, что нашлось в коробке — камера, держатель для установки на стену, комплект крепежа, блок питания и инструкция на английском.

Читайте также:  Как настроить визуализацию в блюстакс

Держатель крепится при помощи шурупов к стене, а камера к нему крепится при помощи комплектного винта. Платформа держателя может поворачиваться и менять угол наклона. Блок питания с евровилкой, рассчитан на сеть переменного напряжения 100-240 В, выход — 12 Вольт, до 1 А.

Инструкция на английском, в ней имеются QR коды на приложение V380 — стандартную и Pro версии. Судя по картинкам в ней — инструкция универсальная и подходит к разным моделям.

Внешний вид

Корпус относится к классу цилиндрических камер, для улучшения качества приема — wi-fi антенны — внешние и их две. Сверху над объективом находится датчик освещения, справа и слева — ИК светодиоды, под объективом — микрофон.

На задней стороне находится наклейка с QR кодом для подключения камеры, ее уникальный номер и имя пользователя для wi-fi сети по умолчанию. На нижней стороне находится съемная крышка с перфорацией для динамика. Чуть далее — прикрытый полупрозрачной крышкой разъем для micro USB и резьба для установки на стенной держатель.

А вот так выглядит комплекс в сборе — камера может быть повернута и наклонена в нужную сторону.

Разъем micro USB по всей видимости — бутафорский, там просто отверстие в корпусе, собственного самого разъема я не увидел.

На съемной крышке выбита надпись micro SD — чтобы не возникало сомнений где его искать. Кстати насчет перфорации для динамика — возникают некоторые сомнения по поводу стойкости к намоканию.

Под крышкой обнаруживается разъем для карты памяти, отверстие в корпусе по большей частью закрывается полупрозрачной силиконовой прокладкой. Динамик находится прямо на крышке, к нему ведут два провода. Не знаю как насчет его водостойкости, если он рассчитан на попадание влаги, то вместе с прокладкой — должен нормально защищать.

Интерфейсный кабель разделяется на три части — разъем для подключения блока питания, сетевого Ethernet кабеля и кнопка reset. Для доступа к кнопке — надо открыть резиновую крышку. Важно запомнить эту особенность — тройной кабель и разъем Ethernet. Чуть дальше расскажу зачем.

Включаем камеру и приступим к следующей части обзора.

Отличия от версии для Mihome

Ответ на вопрос как отличить версии камер — дает сам mihome. При попытке соединения с камерой, которая в приложении выглядит точь в точь как герой обзоре — открывается картинка которая показывает как сбрасывать камеру. Обратите внимание на то, как выглядит конец интерфейсного кабеля.

Он не расходится на три конца а имеет единый блок, в котором есть разъем для блока питания и кнопка сброса. Порт Ethernet в этой версии — отсутствует

Поэтому если нужна камера с подключением к Mihome — ищем упоминание об этом в названии товара

Нужно убедится в том что на реальных фотографиях товара в описании тоже была эта конструктивная особенность

Не стесняйтесь спросить продавца и попросить его предоставить фото товара — какой кабель у камеры, можно попросить сфотографировать коробку — на ней тоже должна быть указана версия.

Подключение

В течении 15 секунд после запуска камера стартует и выдает голосовое сообщение на китайском, или английском, в зависимости от установок. Камеру можно подключить при помощи кабеля, либо соединится с появившейся wi-fi сетью, без сетевого кабеля камера стартует в режиме точки доступа. Я установил приложение v380pro, и запустил мастер подключения нового оборудования.

Камера сразу нашлась так как я подключил смартфон к ее точке доступа. Процесс быстрый и несложный, присваиваем камере имя и подключение на этом завершается

Окно предварительного просмотра появляется в приложении — причем в одной локальной сети, подключение напрямую, без интернет — да и откуда ему взяться когда это сеть которую раздает камера. Кстати приложение худо-бедно переведено на русский — довольно много ляпов, но в целом понятно. Для камеры доступны только китайский или английский языки.

Читайте также:  Как настроить сеть в офисе через роутер

В меню сеть — переключаем камеру из режима точки доступа в режим wi-fi клиента, выбираем и подключаемся к своей сети. Но это не обязательно, вы можете оставить и точку доступа, для установки в тех местах, где wi-fi нет и работать локально.

Если сеть к которой подключена камера — wi-fi, или кабелем, имеет выход в интернет, то приложение сможет подключаться к камере и удаленно, через облако. По версии разработчиков, на русском этот режим называется Интернет в Интернете. Работает неплохо но все же с заметным таймлагом. А вот в режиме прямого подключения — все очень быстро, без тормозов.

У камеры имеется режим охраны — доступный из меню устройства, либо по нажатию на значок в виде щита, в окне превью.

Камера реагирует на движение в кадре, уведомляет об этом — согласно настройкам и сохраняет данные о тревожном моменте. Как работает звуковая сигнализация — см. в видео версии обзора.

Камера работает в режиме двусторонней связи, можно использовать как видеоняню особенно в быстром LAN режиме. При установке карты памяти появляется возможность писать как в непрерывном режиме так и по движению в кадре. При этом есть возможность установки нужного часового пояса — время в кадре будет корректным.

Как камера работает в режиме двусторонней голосовой связи — см. в видео версии обзора.

Для просмотра записей, нужно в окне просмотра нажать справа внизу кнопку Повтор. Есть возможность выбора по датам, в виде отдельных роликов по времени и тайм лайн. На тайм лайне — красным отображаются видео записанные по движению, голубым — непрерывная запись.

Из интересного — есть возможность вручную выбрать IP адрес, это бывает полезно. Можно предоставить доступ к камере для других пользователей. При желании можно приобрести один из пакетов для хранения видеороликов в облаке — цены более менее доступны.

В приложении имеется возможность и полноэкранного просмотра, доступно два варианта качества изображения — SD И HD

Четыре светодиода инфракрасной подсветки заметны невооруженным взглядом, но светят достаточно неплохо. Качество ночной съемки на уровне.

Onvif

Несмотря на то что во всех магазинах пишут про поддержку Onvif — эта камера не находится onvif менеджерами. Другие мои камеры — без проблем. Но не эта.

Съемка

Примеры съемки — см. в видеоверсии обзора

Что касается параметров роликов — их фактические разрешение определяется как 2304*1296 25 кадров в секунду. Но при этом показываются какие-то запредельные значения по потоку. Кодек какой-то специфический, нужно подбирать чтобы можно было просматривать записи с карты памяти.

Через приложение проигрывается хорошо.

Видеоверсия

Вывод

Камера, как для своей весьма скромной цены, имеет довольно интересные возможности — это и Ethernet порт, возможность прямого подключения без интернет и режим точки доступа. Качество материала — неплохое, вполне достаточное для камеры такого уровня. Подойдет для режима видеоняни, так как в режиме LAN не зависит от качества интернет соединения.

Интересно было бы сравнить с версией для Mihome, надеюсь такая возможность у меня еще будет.

Источник

Как настроить 380 pro


  • WIFI IP камера с возможностью ночной съемки
  • Поддержка Plug &Play (P2P), нет необходимости в DDNS, нет необходимости в проброске портов.
  • Простое управление и настройка, через приложение на телефон. Поддержка операционных систем iOS, Android.
  • Поддержка ONVIF протокола
  • Поддержка MicroSD (Файловая система MicroSD карты, должна быть в формате FAT32),
  • Поддержка удаленного воспроизведения. (Примечание: 32GB SD карты хватает приблизительно на 3 недели).
  • Сигнализация тревоги: Возможность подачи сообщения о движении на телефон с помощью установленного приложения,скриншоты на почту не отправляет, но скриншоты по тревоге камера сбрасывает в своеже облако, можно смотреть из приложения)
  • Есть микрофон и динамик. С помощью приложения установленного на телефон, можно озвучить сообщение, которое передается через встроенный динамик в камере.
Читайте также:  Яндекс маркет как настроить регионы показа

https://onedrive.live.…7B%21112&action=locate
Используется сервис nvdvr.net по 5050 порту (облако). MVCMS коннектится либо напрямую, либо через облако по адресу 00000000.nvdvr.net:5050 (где нули это ID камеры) Имя и пароль требует, также нужен проброс портов для доступа из вне
Видео пишет нормально, проигрывает без костылей в любом плеере. На смартфоне можно просматривать через приложение, на ПК можно смотреть и скачивать. Само приложение в маркете называется v380.

Можете поиграться с камерой продавца 31101562 admin 3154

General
Complete name : C:\Users\admin\Desktop\RecFiles\Rec1_20160718115221_A_1.avi
Format : AVI
Format/Info : Audio Video Interleave
File size : 10.1 MiB
Duration : 1mn 57s
Overall bit rate : 725 Kbps

Video
ID : 0
Format : x264
Codec ID : x264
Duration : 1mn 57s
Bit rate : 685 Kbps
Width : 1 280 pixels
Height : 720 pixels
Display aspect ratio : 16:9
Frame rate : 25.000 fps
Bits/(Pixel*Frame) : 0.030
Stream size : 9.56 MiB (94%)

Audio
ID : 1
Format : ADPCM
Codec ID : 11
Codec ID/Hint : Intel
Duration : 1mn 56s
Bit rate mode : Constant
Bit rate : 32.4 Kbps
Channel(s) : 1 channel
Sampling rate : 8 000 Hz
Bit depth : 4 bits
Stream size : 462 KiB (4%)
Interleave, duration : 63 ms (1.59 video frames)

По вопросам наполнения шапки обращайтесь к модераторам раздела, отправив «Жалобу» на сообщениях, ссылки на которые необходимо добавить.

Сообщение отредактировал Олег Верещагин — 18.03.21, 13:56

Источник



Как настроить 380 pro


  • WIFI IP камера с возможностью ночной съемки
  • Поддержка Plug &Play (P2P), нет необходимости в DDNS, нет необходимости в проброске портов.
  • Простое управление и настройка, через приложение на телефон. Поддержка операционных систем iOS, Android.
  • Поддержка ONVIF протокола
  • Поддержка MicroSD (Файловая система MicroSD карты, должна быть в формате FAT32),
  • Поддержка удаленного воспроизведения. (Примечание: 32GB SD карты хватает приблизительно на 3 недели).
  • Сигнализация тревоги: Возможность подачи сообщения о движении на телефон с помощью установленного приложения,скриншоты на почту не отправляет, но скриншоты по тревоге камера сбрасывает в своеже облако, можно смотреть из приложения)
  • Есть микрофон и динамик. С помощью приложения установленного на телефон, можно озвучить сообщение, которое передается через встроенный динамик в камере.

https://onedrive.live.…7B%21112&action=locate
Используется сервис nvdvr.net по 5050 порту (облако). MVCMS коннектится либо напрямую, либо через облако по адресу 00000000.nvdvr.net:5050 (где нули это ID камеры) Имя и пароль требует, также нужен проброс портов для доступа из вне
Видео пишет нормально, проигрывает без костылей в любом плеере. На смартфоне можно просматривать через приложение, на ПК можно смотреть и скачивать. Само приложение в маркете называется v380.

Можете поиграться с камерой продавца 31101562 admin 3154

General
Complete name : C:\Users\admin\Desktop\RecFiles\Rec1_20160718115221_A_1.avi
Format : AVI
Format/Info : Audio Video Interleave
File size : 10.1 MiB
Duration : 1mn 57s
Overall bit rate : 725 Kbps

Video
ID : 0
Format : x264
Codec ID : x264
Duration : 1mn 57s
Bit rate : 685 Kbps
Width : 1 280 pixels
Height : 720 pixels
Display aspect ratio : 16:9
Frame rate : 25.000 fps
Bits/(Pixel*Frame) : 0.030
Stream size : 9.56 MiB (94%)

Audio
ID : 1
Format : ADPCM
Codec ID : 11
Codec ID/Hint : Intel
Duration : 1mn 56s
Bit rate mode : Constant
Bit rate : 32.4 Kbps
Channel(s) : 1 channel
Sampling rate : 8 000 Hz
Bit depth : 4 bits
Stream size : 462 KiB (4%)
Interleave, duration : 63 ms (1.59 video frames)

По вопросам наполнения шапки обращайтесь к модераторам раздела, отправив «Жалобу» на сообщениях, ссылки на которые необходимо добавить.

Сообщение отредактировал Олег Верещагин — 18.03.21, 13:56

Источник